Search

Lessons In Tarot - The Sedona Series

Manufacturer: Reanna Mansell
Gigi also stresses the importance of using the cards as a vehicle for intuition and developing your own abilities around the cards. The instruction will work with any Tarot Deck.
SKU: LITTSS
$69.76
$32.00
i h

Lessons In Tarot - The Sedona Series

Lessons In Tarot - The Sedona Series

 

 

Information edited / taken from:

 

http://www.universalpsychic.com/lessonsdvd.html

 

- This is this Tarot Readers website as featured in this DVD.

 

 

 

Meet Gigi, a professional Tarot Reader.  Unlike readers who do mostly phone and web work, the readers of Sedona do most of their work face to face.  So, in order to get paid and have repeat clients, they have to be good.

 

 

 

Gigi is going to take you on a fun journey through the basics of Tarot, using the standard Tarot configuration of the Major Arcana and Four Suits.  We go over every single card and the potential and likely representations of the card.  We also cover timing and other aspects of a reading.  You will see a live reading, and also join student Kim as she learns the cards and does her first Tarot spread.  

 

 

 

Gigi also stresses the importance of using the cards as a vehicle for intuition and developing your own abilities around the cards.  The instruction will work with any Tarot Deck.

 

 

 

We taped this DVD with four cameras, so you have excellent views of the lessons. It has a great set of graphics and cool music too.  The DVD is menu indexed so that you can go right to the section you want to study or reference.

 

 

 

Menu:

 

PLAY FROM START

 

GO TO MAJOR ARCANA

 

GO TO WANDS

 

GO TO CUPS

 

GO TO SWORDS

 

GO TO PENTACLES

 

GO TO TIMING

 

GO TO CELTIC SPREAD

 

 

 

DECK USED: OSWALD WARTH

 

 

 

Suitability level: OK for Beginners. However I feel that some knowledge of Tarot will be of benefit. Since it uses an ''ugly'' deck - pack in my opinion.:-/  

 

However all 78 cards are touched upon. And sample spreads are shown.

 

 

 

Duration: 72 Mins

 

 

 

Technical Stuff ~ Sample of One video file using MEDIAINFO

 

 

 

Complete name                    : G:\Lessons In Tarot DVD\VIDEO_TS\VTS_01_1.VOB

 

Format                           : MPEG-PS

 

File size                        : 1 024 MiB

 

Duration                         : 17mn 26s

 

Overall bit rate                 : 8 209 Kbps

 

Writing library                  : BitVice MPEG2 Encoder Vn 1.3.3 PPC G4 (c) 2003 Innobits AB

 

 

 

Video

 

ID                               : 224 (0xE0)

 

Format                           : MPEG Video

 

Format version                   : Version 2

 

Format profile                   : [email protected]

 

Format settings, Matrix          : Default

 

Duration                         : 17mn 26s

 

Bit rate mode                    : Variable

 

Bit rate                         : 6 347 Kbps

 

Nominal bit rate                 : 7 298 Kbps

 

Width                            : 720 pixels

 

Height                           : 480 pixels

 

Display aspect ratio             : 4:3

 

frame rate                       : 29.970 fps

 

Standard                         : NTSC

 

Colorimetry                      : 4:2:0

 

Scan type                        : Interlaced

 

Scan order                       : Bottom Field First

 

Bits/(Pixel*frame)               : 0.613

 

Stream size                      : 792 MiB (77%)

 

Writing library                  : BitVice MPEG2 Encoder Vn 1.3.3 PPC G4 (c) 2003 Innobits AB

 

 

 

Audio

 

ID                               : 160 (0xA0)

 

Format                           : PCM

 

Format settings, Endianness      : Big

 

Format settings, Sign            : Signed

 

Muxing mode                      : DVD-Video

 

Duration                         : 17mn 25s

 

Bit rate mode                    : Constant

 

Bit rate                         : 1 536 Kbps

 

Channel(s)                       : 2 channels

 

Channel positions                : Front: L R

 

Sampling rate                    : 48.0 KHz

 

Resolution                       : 16 bits

 

Stream size                      : 192 MiB (19%)

Get Download Lessons In Tarot - The Sedona Series Right Now!

Lessons In Tarot - The Sedona Series

Lessons In Tarot - The Sedona Series

 

 

Information edited / taken from:

 

http://www.universalpsychic.com/lessonsdvd.html

 

- This is this Tarot Readers website as featured in this DVD.

 

 

 

Meet Gigi, a professional Tarot Reader.  Unlike readers who do mostly phone and web work, the readers of Sedona do most of their work face to face.  So, in order to get paid and have repeat clients, they have to be good.

 

 

 

Gigi is going to take you on a fun journey through the basics of Tarot, using the standard Tarot configuration of the Major Arcana and Four Suits.  We go over every single card and the potential and likely representations of the card.  We also cover timing and other aspects of a reading.  You will see a live reading, and also join student Kim as she learns the cards and does her first Tarot spread.  

 

 

 

Gigi also stresses the importance of using the cards as a vehicle for intuition and developing your own abilities around the cards.  The instruction will work with any Tarot Deck.

 

 

 

We taped this DVD with four cameras, so you have excellent views of the lessons. It has a great set of graphics and cool music too.  The DVD is menu indexed so that you can go right to the section you want to study or reference.

 

 

 

Menu:

 

PLAY FROM START

 

GO TO MAJOR ARCANA

 

GO TO WANDS

 

GO TO CUPS

 

GO TO SWORDS

 

GO TO PENTACLES

 

GO TO TIMING

 

GO TO CELTIC SPREAD

 

 

 

DECK USED: OSWALD WARTH

 

 

 

Suitability level: OK for Beginners. However I feel that some knowledge of Tarot will be of benefit. Since it uses an ''ugly'' deck - pack in my opinion.:-/  

 

However all 78 cards are touched upon. And sample spreads are shown.

 

 

 

Duration: 72 Mins

 

 

 

Technical Stuff ~ Sample of One video file using MEDIAINFO

 

 

 

Complete name                    : G:\Lessons In Tarot DVD\VIDEO_TS\VTS_01_1.VOB

 

Format                           : MPEG-PS

 

File size                        : 1 024 MiB

 

Duration                         : 17mn 26s

 

Overall bit rate                 : 8 209 Kbps

 

Writing library                  : BitVice MPEG2 Encoder Vn 1.3.3 PPC G4 (c) 2003 Innobits AB

 

 

 

Video

 

ID                               : 224 (0xE0)

 

Format                           : MPEG Video

 

Format version                   : Version 2

 

Format profile                   : [email protected]

 

Format settings, Matrix          : Default

 

Duration                         : 17mn 26s

 

Bit rate mode                    : Variable

 

Bit rate                         : 6 347 Kbps

 

Nominal bit rate                 : 7 298 Kbps

 

Width                            : 720 pixels

 

Height                           : 480 pixels

 

Display aspect ratio             : 4:3

 

frame rate                       : 29.970 fps

 

Standard                         : NTSC

 

Colorimetry                      : 4:2:0

 

Scan type                        : Interlaced

 

Scan order                       : Bottom Field First

 

Bits/(Pixel*frame)               : 0.613

 

Stream size                      : 792 MiB (77%)

 

Writing library                  : BitVice MPEG2 Encoder Vn 1.3.3 PPC G4 (c) 2003 Innobits AB

 

 

 

Audio

 

ID                               : 160 (0xA0)

 

Format                           : PCM

 

Format settings, Endianness      : Big

 

Format settings, Sign            : Signed

 

Muxing mode                      : DVD-Video

 

Duration                         : 17mn 25s

 

Bit rate mode                    : Constant

 

Bit rate                         : 1 536 Kbps

 

Channel(s)                       : 2 channels

 

Channel positions                : Front: L R

 

Sampling rate                    : 48.0 KHz

 

Resolution                       : 16 bits

 

Stream size                      : 192 MiB (19%)

Get Download Lessons In Tarot - The Sedona Series Right Now!

Product tags